Скачать через торрент Аквамен Aquaman Фильм бесплатно в хорошем качестве torrent

Скачивайте на UnionPeer.org фильмы через торрент без регистрации. Новинки кино в хорошем качестве через торрент. На UnionPeer.org можно скачать через торрент фильмы 2014 и 2015 годов. Самые новые фильмы.

Скачать торрент Аквамен Aquaman бесплатно через .torrent фильм мультфильм сериал

Статистика раздачи
Размер:  4.36 GB   |    Зарегистрирован:  20 дней   |    .torrent скачан:  328 раз   |   
Раздают:  1  
   
загрузка...
 
Автор Сообщение

Galfimbul

avatar Galfimbul


Название: Аквамен
Оригинальное название: Aquaman
Год выхода: 2018
Жанр: Фантастика, фэнтези, боевик, приключения
Режиссер: Джеймс Ван
В ролях: Джейсон Момоа, Эмбер Хёрд, Дольф Лундгрен, Николь Кидман, Джули Эндрюс, Патрик Уилсон, Уиллем Дефо, Грэм МакТавиш, Талия Джейд, Джимон Хонсу, Темуэра Моррисон

О фильме:
Действие фильма разворачивается в необъятном и захватывающем подводном мире семи морей, а сюжет знакомит зрителей с историей происхождения получеловека-полуатланта Артура Карри и ключевыми событиями его жизни — теми, что заставят его не только столкнуться с самим собой, но и выяснить, достоин ли он быть тем, кем ему суждено… царем!



Страна: Австралия, США
Студия: DC Comics, DC Entertainment, Panoramic Pictures
Продолжительность: 02:22:30
Перевод: Профессиональный (многоголосый, закадровый) - HDRezka Studio
Субтитры: Корейские (хардсаб) [Вшитые, не отключаемые]

Файл
Формат: Matroska
Качество: WEBRip 1080p [Aquaman.2018.1080p.KORSUB.HDRip.x264.AAC2.0-STUTTERSHIT]
Видео: MPEG-4 AVC, 1920x800, 4000 Кбит/c
Аудио: Русский, английский (AC3, 2 ch, 192 Кбит/с)
General
Unique ID : 292984621880139453702315884151957316147 (0xDC6AC92083E6F2BB4996530F8BEF6233)
Complete name : Aquaman.2018.1080p.KORSUB.WEBRip.1080p.x264.-STUTTERSHIT.mkv
Format : Matroska
Format version : Version 4
File size : 4.36 GiB
Duration : 2 h 22 min
Overall bit rate : 4 385 kb/s
Movie name : Aquaman.2018.1080p.KORSUB.HDRip.x264.AAC2.0-STUTTERSHIT
Encoded date : UTC 2019-01-26 15:18:38
Writing application : mkvmerge v30.1.0 ('Forever And More') 64-bit
Writing library : libebml v1.3.6 + libmatroska v1.4.9
Attachments : Poster.jpg

Video
ID : 1
Format : AVC
Format/Info : Advanced Video Codec
Format profile : High@L4.1
Format settings : CABAC / 4 Ref Frames
Format settings, CABAC : Yes
Format settings, ReFrames : 4 frames
Codec ID : V_MPEG4/ISO/AVC
Duration : 2 h 22 min
Bit rate : 4 000 kb/s
Width : 1 920 pixels
Height : 800 pixels
Display aspect ratio : 2.40:1
Frame rate mode : Constant
Frame rate : 29.970 (30000/1001) FPS
Color space : YUV
Chroma subsampling : 4:2:0
Bit depth : 8 bits
Scan type : Progressive
Bits/(Pixel*Frame) : 0.087
Stream size : 3.98 GiB (91%)
Title : Aquaman.2018.1080p.KORSUB.HDRip.x264.AAC2.0-STUTTERSHIT
Writing library : x264 core 142 r2479 dd79a61
Encoding settings : cabac=1 / ref=3 / deblock=1:0:0 / analyse=0x3:0x113 / me=hex / subme=7 / psy=1 / psy_rd=1.00:0.00 / mixed_ref=1 / me_range=16 / chroma_me=1 / trellis=1 / 8x8dct=1 / cqm=0 / deadzone=21,11 / fast_pskip=1 / chroma_qp_offset=-2 / threads=18 / lookahead_threads=3 / sliced_threads=0 / nr=0 / decimate=1 / interlaced=0 / bluray_compat=0 / constrained_intra=0 / bframes=3 / b_pyramid=2 / b_adapt=1 / b_bias=0 / direct=1 / weightb=1 / open_gop=0 / weightp=2 / keyint=300 / keyint_min=30 / scenecut=40 / intra_refresh=0 / rc_lookahead=40 / rc=2pass / mbtree=1 / bitrate=4000 / ratetol=1.0 / qcomp=0.60 / qpmin=0 / qpmax=69 / qpstep=4 / cplxblur=20.0 / qblur=0.5 / vbv_maxrate=62500 / vbv_bufsize=78125 / nal_hrd=none / filler=0 / ip_ratio=1.40 / aq=1:1.00
Language : English
Default : Yes
Forced : No
Color range : Limited
Color primaries : BT.709
Transfer characteristics : BT.709
Matrix coefficients : BT.709

Audio #1
ID : 2
Format : AC-3
Format/Info : Audio Coding 3
Commercial name : Dolby Digital
Codec ID : A_AC3
Duration : 2 h 22 min
Bit rate mode : Constant
Bit rate : 192 kb/s
Channel(s) : 2 channels
Channel layout : L R
Sampling rate : 48.0 kHz
Frame rate : 31.250 FPS (1536 SPF)
Bit depth : 16 bits
Compression mode : Lossy
Stream size : 196 MiB (4%)
Title : RUS_[MVO.HDRezka Studio]
Language : Russian
Service kind : Complete Main
Default : Yes
Forced : No

Audio #2
ID : 3
Format : AC-3
Format/Info : Audio Coding 3
Commercial name : Dolby Digital
Codec ID : A_AC3
Duration : 2 h 22 min
Bit rate mode : Constant
Bit rate : 192 kb/s
Channel(s) : 2 channels
Channel layout : L R
Sampling rate : 48.0 kHz
Frame rate : 31.250 FPS (1536 SPF)
Bit depth : 16 bits
Compression mode : Lossy
Stream size : 196 MiB (4%)
Title : ENG
Language : Russian
Service kind : Complete Main
Default : No
Forced : No
Источник http://BlaTor.org

Трекер:  [ 26-Янв-2019 18:50 ]

  

Скачать .torrent

Размер .torrent файла 11 KB


Размер: 4.36 GB
Хэш (hash) релиза: d6db0ff93076d5d4434a1f451fa73030f49d6789
Подписка на обновления:

Торренты, похожие на Аквамен Aquaman скачать торрент

Форум Название Автор Размер S L Добавлен
Зарубежные фильмы 2016-2018 (Новинки зарубежного кино) ·%· Аквамен / Aquaman (2018) WEBRip-AVC от OlLanDGroup | HDRezka Studio Galfimbul 24986409472.33 GB 0 0 1548598210

17:10

27-Янв-19

Зарубежные фильмы 2016-2018 (Новинки зарубежного кино) ·%· Аквамен / Aquaman (2018) WEBRip 720p | HDRezka Studio Galfimbul 44743868584.17 GB 0 0 1548570623

09:30

27-Янв-19

Зарубежные фильмы 2016-2018 (Новинки зарубежного кино) ·%· Аквамен / Aquaman (2018) WEBRip от Dalemake | HDrezka Studio Galfimbul 15696097281.46 GB 0 0 1548498011

13:20

26-Янв-19

Зарубежные фильмы 2016-2018 (Новинки зарубежного кино) ·%· Аквамен / Aquaman (2018) WEBRip 1080p | HDRezka Studio Galfimbul 1164064817210.84 GB 0 0 1548482417

09:00

26-Янв-19

Зарубежные фильмы 2016-2018 (Новинки зарубежного кино) ·%· Аквамен / Aquaman (2018) TS | D Galfimbul 22678144982.11 GB 0 0 1545408612

19:10

21-Дек-18

Мультфильмы 2016-2018 (Новинки мультфильмов) ·%· LEGO DC Comics: Аквамен - Ярость Атлантиды / LEGO DC Comics Super Heroes: Aquaman - Rage of Atlantis (2018) WEB-DLRip 1080p | Flarrow Films Galfimbul 35201221503.28 GB 0 0 1535390028

20:13

27-Авг-18

Еще никто не оставлял запись к записи скачать торрент Аквамен Aquaman . Будь первым!

!Обратная связь